<?xml version="1.0" standalone="no"?>
<!DOCTYPE svg PUBLIC "-//W3C//DTD SVG 1.1//EN" "http://www.w3.org/Graphics/SVG/1.1/DTD/svg11.dtd">
<svg xmlns="http://www.w3.org/2000/svg">
<metadata>Copyright (C) 2021 by original authors @ fontello.com</metadata>
<defs>
<font id="fontello" horiz-adv-x="1000" >
<font-face font-family="fontello" font-weight="400" font-stretch="normal" units-per-em="1000" ascent="850" descent="-150" />
<missing-glyph horiz-adv-x="1000" />
<glyph glyph-name="search" unicode="&#xe800;" d="M746 209l254-255-105-105-254 254q-106-72-232-72-169 0-289 120t-120 289 120 289 289 120 289-120 120-289q0-127-72-231z m-65 231q0 113-79 193t-193 80-193-80-80-193 80-192 193-80 193 80 79 192z" horiz-adv-x="1000" />

<glyph glyph-name="gdplus-circle" unicode="&#xe801;" d="M252 415c-11 0-20-7-24-21-3-7-6-18-8-28-3-25 5-33 13-35 2-1 4-1 5-1 3 0 6 1 8 2 10 6 14 20 14 22 1 4 12 40 4 54-4 4-7 7-12 7z m245-26c-7 3-15 0-25-10-8-8-17-21-23-36-7-15-11-29-11-41 0-14 4-22 11-25 1-1 4-1 5-1 6 0 14 4 21 11 8 9 17 22 23 36s10 29 10 41c0 13-4 22-11 25z m-326-207c0-14 12-26 26-26h45c15 0 26 12 26 26s-11 26-26 26h-45c-14 0-26-12-26-26z m329 668c-276 0-500-223-500-500s224-500 500-500 501 224 501 500-225 500-501 500z m80-651c-38 0-57 36-57 36l-2 6-3-5c-16-26-58-41-102-35-21 2-41 18-54 41-13 23-29 70 4 139 1 3 3 6 4 9l3 4h-6c-14 0-23 0-23 0h-4v-3c0-1-3-94-51-94h-35c-8 0-16-1-23-4-7-3-12-10-12-19 0-9 5-17 14-21 11-5 24-5 35-5h4c24-1 57-5 75-29 21-29 4-61-18-80-36-32-82-31-127-29-4 0-103 4-105 64-3 60 61 67 63 67l16 2-15 5c-1 0-21 7-21 26 0 14 2 25 25 34l7 3-7 3c-1 0-25 11-25 60 0 48 51 82 87 85 39 4 64 0 73-7l1-1 136 1h1c46 18 92 9 93 9l4-1 8 121 92 9c-7-34-44-245-45-292 0-18 5-31 14-39 9-8 20-10 26-10-4-12-18-50-50-50z m291 135c-25 1-54 1-88-1-11-51-17-85-17-101 0-5-3-9-10-13-7-3-13-6-20-6-8 0-14 2-19 6-5 4-7 8-7 14 0 20 5 52 16 98-26-1-49-2-69-4-11-1-19-2-22-2-11 0-17 10-17 29 0 7 6 13 16 17s45 7 106 8c18 64 30 100 36 107 5 7 12 12 22 12 16 0 24-4 24-11 0-4-2-10-4-18-3-8-11-38-24-89 36 1 65 2 88 2 15 0 22-7 22-22 0-17-11-26-33-26z" horiz-adv-x="1001" />

<glyph glyph-name="gdplus" unicode="&#xe802;" d="M1014 245c3 96 80 530 93 600l-189-18-16-249-7 1c-2 0-97 20-191-19h-2l-279-2-1 2c-20 15-72 22-151 14-77-5-181-76-181-173 0-100 48-123 49-123l15-6-15-7c-47-19-49-40-49-69 0-40 40-53 42-54l31-9-33-6c-5 0-135-14-130-139 5-122 208-133 216-133 94-2 189-6 263 60 43 39 80 107 35 167-35 48-105 56-153 58h-8c-25 0-50 2-73 12-18 8-29 25-29 43 0 18 9 33 25 39 14 7 33 8 48 8h73c99 0 106 191 106 194v6h5c0 0 19 0 48 0h12l-5-9c-3-6-7-11-10-18-66-142-33-238-7-285 27-48 69-81 110-86 90-12 177 20 210 73l6 9 6-12c0 0 39-74 117-74 65 0 94 77 101 103-13 0-33 3-53 20-18 18-29 44-29 82z m-714-187c28 0 53-24 53-53 0-29-25-53-53-53h-94c-29 0-54 24-54 53 0 29 25 53 54 53h94z m37 301c0-2-9-32-28-43-6-2-12-5-16-5-3 0-8 0-12 1-15 5-34 21-26 73 3 21 9 42 15 56 9 29 27 43 49 43 9 0 18-5 25-13 18-29-5-103-7-112z m489-64c-13-28-32-56-49-74-14-14-28-22-41-22-3 0-8 0-12 1-14 7-21 25-21 52 0 25 8 55 21 86 13 29 31 56 48 75 20 19 37 26 52 19 15-6 21-25 21-52 0-25-6-55-19-85z m790 121c-48 0-108-1-182-2 27 105 43 167 49 182 5 16 8 29 8 37 0 14-16 22-48 22-21 0-35-9-47-25s-35-89-74-221c-124-2-197-8-218-16s-32-21-32-35c0-39 11-59 34-59 7 0 24 2 46 3 41 5 88 6 142 8-22-94-34-160-34-202 0-12 6-21 15-29 9-8 22-12 39-12 14 0 27 6 42 12 14 8 20 16 20 28 0 33 12 102 34 208 72 2 130 2 182 1 46 0 68 18 68 54 2 32-13 46-44 46z" horiz-adv-x="1661" />

<glyph glyph-name="gdplus-outline" unicode="&#xe803;" d="M590 298c1 47 38 258 45 292l-92-9-8-121-4 1c-1 0-47 9-93-9h-1l-136-1-1 1c-9 7-34 11-73 7-36-3-87-37-87-85 0-49 24-60 25-60l7-3-7-3c-23-9-25-20-25-34 0-19 20-26 21-26l15-5-16-2c-2 0-66-7-63-67 2-60 101-64 105-64 45-2 91-3 127 29 22 19 39 51 18 80-18 24-51 28-75 29h-4c-11 0-24 0-35 5-9 4-14 12-14 21 0 9 5 16 12 19 7 3 15 4 23 4h35c48 0 51 93 51 94v3h4c0 0 9 0 23 0h6l-3-4c-1-3-3-6-4-9-33-69-17-116-4-139 13-23 33-39 54-41 44-6 86 9 102 35l3 5 2-6c0 0 19-36 57-36 32 0 46 38 50 50-6 0-17 2-26 10-9 8-14 21-14 39z m-348-90c15 0 26-12 26-26s-11-26-26-26h-45c-14 0-26 12-26 26s12 26 26 26h45z m18 146c0-2-4-16-14-22-2-1-5-2-8-2-1 0-3 0-5 1-8 2-16 10-13 35 2 10 5 21 8 28 4 14 13 21 24 21 5 0 8-3 12-7 8-14-3-50-4-54z m238-31c-6-14-15-27-23-36-7-7-15-11-21-11-1 0-4 0-5 1-7 3-11 11-11 25 0 12 4 26 11 41 6 15 15 28 23 36 10 10 18 13 25 10 7-3 11-12 11-25 0-12-4-27-10-41z m2 527c-276 0-500-223-500-500s224-500 500-500c277 0 501 224 501 500s-225 500-501 500z m0-977c-263 0-476 215-476 477s213 477 476 477 477-215 477-477-215-477-477-477z m382 509c-23 0-52-1-88-2 13 51 21 81 24 89 2 8 4 14 4 18 0 7-8 11-24 11-10 0-17-5-22-12-6-7-18-43-36-107-61-1-96-4-106-8-10-4-16-10-16-17 0-19 6-29 17-29 3 0 11 1 22 2 20 2 43 3 69 4-11-46-16-78-16-98 0-6 2-10 7-14 5-4 11-6 19-6 7 0 13 3 20 6 7 4 10 8 10 13 0 16 6 50 17 101 34 2 63 2 88 1 22 0 33 9 33 26 0 15-7 22-22 22z" horiz-adv-x="1001" />

<glyph glyph-name="account" unicode="&#xe804;" d="M500 850c-276 0-500-224-500-500 0-276 224-500 500-500 276 0 500 224 500 500 0 133-53 260-146 354-94 93-221 146-354 146z m0-150c83 0 150-67 150-150 0-83-67-150-150-150-83 0-150 67-150 150 0 83 67 150 150 150z m281-558c-66-89-170-141-281-141-111 0-215 52-281 141-10 15-11 34-3 50l10 22c25 53 78 86 136 86l277 0c57 0 109-33 134-84l12-23c8-17 6-36-4-51z" horiz-adv-x="1000" />

<glyph glyph-name="deals" unicode="&#xe805;" d="M395 843c-7 4-16 7-26 7l-4 0c-14 0-25-11-25-25l0-230c0-11-7-21-17-24-10-3-22 1-27 10-33 38-74 67-119 88-7 3-14 3-21 0-6-5-10-13-10-21-15-141-146-199-146-399 0-220 174-399 389-399 215 0 389 179 389 399 0 313-266 518-383 594z m-6-891c-107 0-195 90-195 200 0 134 133 212 146 288 2 7 8 11 14 10 130-39 222-159 229-298 0-110-87-200-194-200z" horiz-adv-x="778" />

<glyph glyph-name="premium" unicode="&#xe806;" d="M1052 546l-212 229c-19 21-46 33-75 33l-419 0c-29 0-56-12-75-33l-211-229c-9-10-14-22-14-35l0-15c0-12 4-24 12-33l458-553c10-12 24-18 40-18l0 0c15 0 29 6 39 18l458 553c8 9 12 21 12 33l0 15c0 13-5 25-13 35z m-538-475l-339 408c-6 3-10 10-7 17 3 6 10 9 17 7l181 0c23 1 43-13 51-35l121-385c4-7 1-15-6-18-7-3-15 0-18 6l0 0z m410 432l-314 0c-5 0-10 3-12 7-2 5-1 10 2 14l156 172c3 3 6 5 10 5 3 0 7-2 9-5l158-172c4-3 5-9 3-13-2-5-7-8-12-8l0 0z" horiz-adv-x="1111" />

<glyph glyph-name="saved" unicode="&#xe807;" d="M721 850l-618 0c-57 0-103-45-103-100l0-800c0-55 46-100 103-100l618 0c56 0 103 45 103 100l0 800c0 55-47 100-103 100z m-309-475c0-9-5-18-14-22-8-5-18-4-26 1l-100 65c-9 6-20 6-29 0l-100-65c-8-5-18-6-26-1-9 4-14 13-14 22l0 350c0 14 12 25 26 25l257 0c14 0 26-11 26-25l0-350z" horiz-adv-x="824" />

<glyph glyph-name="home" unicode="&#xe808;" d="M0-150l0 649 453 351 453-351 0-649-312 0 0 391-281 0 0-391-313 0z" horiz-adv-x="906" />

<glyph glyph-name="ic_vouchers_alt" unicode="&#xe809;" d="M318-137c-7 3-19 14-46 41-35 36-36 37-36 45 0 5 1 10 4 13 15 19 22 36 22 59 0 19-3 30-11 46-9 16-22 29-41 38-13 7-17 8-34 8-23 1-38-3-59-16-22-15-21-15-62 24-47 45-49 49-49 73 0 25-1 23 109 133 272 271 425 423 465 462 50 49 56 53 78 53 22 0 28-4 70-46 43-43 42-42 28-63-9-15-13-25-16-42-5-35 15-75 48-92 16-8 26-11 45-11 20 1 35 5 51 17 20 13 21 13 57-22 40-38 43-41 48-53 6-13 7-30 1-43-6-13-609-617-624-624-13-7-33-7-48 0z m270 273c131 131 238 239 238 240 0 1-10 12-22 24-13 13-24 25-25 27-6 10 1 20 13 20 6 0 9-2 32-25l25-25 53 53c44 44 52 53 52 58 0 5-5 10-27 33l-27 27-10-5c-29-16-65-20-97-10-37 12-65 38-81 73-9 18-12 32-12 54 0 20 5 40 15 58l5 10-27 27c-26 26-28 27-35 27-8 0-10-2-60-51l-52-52 25-24c21-21 24-25 24-31 0-10-10-17-19-13-3 1-16 12-28 24l-21 22-12-10c-6-6-114-113-240-238-216-216-229-229-229-235 0-6 3-10 27-35l27-27 13 7c24 13 48 18 73 15 31-5 56-17 77-39 26-25 39-56 39-90 0-23-3-37-14-59l-8-14 27-27c26-25 28-27 36-27 7 0 10 3 245 238z m-252 78c-40 37-72 69-72 70 0 3 77 84 87 91 20 14 46 16 66 5 29-16 43-48 32-77-2-7-4-12-4-13 1 0 19-3 41-7 21-4 40-7 41-8 3-1-14-21-27-34l-6-5-41 8-41 7-11-11-12-12 25-23c14-13 25-25 25-26 0-2-27-32-30-33 0 0-34 30-73 68z m67 95c6 11 4 18-5 26-8 8-17 8-26 2-3-3-15-14-26-26l-21-22 17-16 16-15 21 21c11 12 22 25 24 30z m103 4c-42 40-76 73-76 75-1 2 5 10 13 18 13 13 14 14 18 12 4-3 4-2 6 6 4 13 12 27 24 38 40 36 103 23 128-27 20-42-1-93-45-109l-10-4 26-24c13-13 25-24 25-25 0-4-27-32-30-32-2 1-37 33-79 72z m49 46c11 5 17 11 22 21 14 25-7 58-36 58-18-1-35-15-40-34-3-13 0-22 11-33 17-17 27-19 43-12z m194 98c-2 1-17 14-31 29-22 22-27 28-27 33 0 8 6 14 15 14 6 0 9-3 35-28 25-25 28-28 28-35 0-10-10-17-20-13z m-88 88c-2 1-17 14-31 29-22 21-27 28-27 32 0 10 8 17 17 15 4-1 16-11 33-28 25-25 28-29 28-35 0-10-10-17-20-13z" horiz-adv-x="1000" />

<glyph glyph-name="vouchers" unicode="&#xe80a;" d="M597 850c-8 0-20-3-27-7-5-3-64-61-282-279-182-182-277-277-279-281-12-18-12-42 0-59 2-4 27-30 63-66l60-60 5 5c26 22 65 26 95 8 9-6 23-20 29-29 11-19 14-43 8-64-3-10-10-24-16-30l-4-6 58-58c32-32 59-60 62-62 5-5 15-9 22-11l0 0c14-3 31 0 42 8 4 2 99 96 282 280 258 258 276 276 279 282 8 18 8 35-1 52-3 6-8 12-64 68-33 33-60 60-61 60 0 0-3-2-6-5-3-2-9-6-14-9-32-16-69-11-95 14-31 29-34 80-6 111 2 3 4 6 4 6 0 1-27 28-60 61-55 55-62 61-68 64-9 5-18 7-26 7z m-1-99a25 25 0 0 0 18-7c5-5 7-7 16-16l0 0 16-16a25 25 0 0 0 7-23c-5-20-4-40-2-55 10-59 51-108 108-127l0 0 0 0 0 0c16-5 33-8 51-8a25 25 0 0 0 1 0c10 0 22 1 33 2a25 25 0 0 0 20-7l13-13 0 0 0 0c7-7 12-12 16-17a25 25 0 0 0 0-34c-6-7-12-13-23-24l0 0c-127-127-225-224-310-310-12 13-24 24-26 26-3 2-5 3-9 3-5 0-5-1-17-11-6-6-12-13-13-15-3-3-3-9-1-13 1-1 13-14 27-28-35-36-69-70-101-102a25 25 0 0 0-34 0c-5 4-9 8-17 16l0 0-13 13a25 25 0 0 0-7 22c3 18 6 15-1 59-11 68-64 121-132 133l1 0a25 25 0 0 0-1 0c-27 5-45 2-58 0a25 25 0 0 0-22 6l-14 14 0 0c-6 7-11 12-16 17a25 25 0 0 0 0 34c43 44 74 74 102 102 13-13 25-25 27-26l0 0c1-1 4-1 6-1 5 1 6 1 16 11 7 6 13 12 14 14 2 4 3 10 1 14-1 1-13 13-26 27 44 43 90 89 175 175 48 48 92 92 125 124 14 14 25 25 34 34a25 25 0 0 0 16 7z m-290-407c-2 0-5-1-6-2-4-1-24-22-26-25-1-4-1-8 1-12 1-3 61-62 64-64l0 0c1-1 4-1 7-1 4 0 5 1 16 11 6 6 12 12 13 14 3 4 3 10 1 14-2 3-60 61-63 63-2 1-5 2-7 2z m116-117c-5 0-5 0-16-11-7-6-13-12-14-14-3-3-3-9-1-13 2-3 61-63 65-65l0 1c3-2 8-2 11 0 2 1 8 7 15 13l12 13 0 5c0 3-1 6-2 7-2 4-56 58-61 61-3 3-5 3-9 3z" horiz-adv-x="1000" />

<glyph glyph-name="dot-3" unicode="&#xe80b;" d="M110 460q46 0 78-32t32-78q0-44-32-77t-78-33-78 33-32 77q0 46 32 78t78 32z m350 0q46 0 78-32t32-78q0-44-33-77t-77-33-77 33-33 77q0 46 32 78t78 32z m350 0q46 0 78-32t32-78q0-44-32-77t-78-33-78 33-32 77q0 46 32 78t78 32z" horiz-adv-x="920" />

<glyph glyph-name="rss-alt" unicode="&#xe80c;" d="M1000 761v-824q0-36-26-62t-62-26h-824q-36 0-62 26t-26 62v824q0 36 26 62t62 26h824q36 0 62-26t26-62z m-283-765h136q0 143-56 274t-150 226-226 150-274 56v-135q154 0 286-76t208-208 76-287z m-240 0h136q0 126-62 234t-170 170-234 62v-135q136 0 233-97 97-95 97-234z m-153 88q0 37-26 63t-63 26q-36 0-62-26t-26-63q0-36 26-62t62-26q37 0 63 26t26 62z" horiz-adv-x="1000" />

<glyph glyph-name="rss" unicode="&#xe80d;" d="M104 142q44 0 74-31t31-73-31-73-74-31-74 31-30 73 30 73 74 31z m0 625q197 0 365-98t267-266 98-365q0-43-31-73t-74-31-74 31-30 73q0 215-152 368t-369 153q-44 0-74 31t-30 73 30 73 74 31z m0-313q172 0 295-122t122-294q0-43-30-73t-75-31-73 31-30 73q0 86-62 147t-147 62q-44 0-74 30t-30 73 30 73 74 31z" horiz-adv-x="834" />

<glyph glyph-name="doc-text-inv" unicode="&#xe80e;" d="M600 800q42 0 71-29t29-71l0-700q0-40-29-70t-71-30l-500 0q-40 0-70 30t-30 70l0 700q0 42 30 71t70 29l500 0z m-460-208l0-88 420 0 0 88-420 0z m420-480l0 88-420 0 0-88 420 0z m0 196l0 90-418 0 0-90 418 0z" horiz-adv-x="700" />

<glyph glyph-name="doc-text" unicode="&#xe80f;" d="M212 308l0 90 280 0 0-90-280 0z m388 492q42 0 71-29t29-71l0-700q0-40-29-70t-71-30l-500 0q-40 0-70 30t-30 70l0 700q0 42 30 71t70 29l500 0z m0-800l0 700-500 0 0-700 500 0z m-110 592l0-88-280 0 0 88 280 0z m0-392l0-88-280 0 0 88 280 0z" horiz-adv-x="700" />

<glyph glyph-name="rss-1" unicode="&#xe810;" d="M0-150l0 199q82 0 141-58t58-141l-199 0z m0 400l0 200q248 0 424-176t176-424l-200 0q0 166-117 283t-283 117z m0 401l0 199q203 0 389-79t319-213 213-319 79-389l-199 0q0 217-108 401t-292 292-401 108z" horiz-adv-x="1000" />

<glyph glyph-name="rss-alt-1" unicode="&#xe811;" d="M18 15q0 112 112 112t111-112-111-112-112 112z m336 56q0 68-50 118t-118 50l0 112q116 0 197-82 83-85 83-198l-112 0z m-169 391l0 112q144 0 258-71t177-180q68-116 68-252l-112 0q0 112-54 201t-140 139q-89 51-197 51z m0 223l0 112q153 0 287-60t227-153 153-226 59-287l-112 0q0 130-50 242t-130 192-192 130-242 50z" horiz-adv-x="928" />

<glyph glyph-name="rss-2" unicode="&#xe812;" d="M784-97q0 209-103 385t-279 279-384 103l0 127q181 0 347-71t285-190 190-285 71-348l-127 0z m-256 0q0 212-150 361t-360 150l0 129q173 0 320-86t233-233 85-321l-128 0z m-254 0q0 107-75 182t-181 75l0 127q158 0 271-112t112-272l-127 0z m-129 0l-127 0 0 128q53 0 90-38t37-90z" horiz-adv-x="928" />

<glyph glyph-name="location" unicode="&#xe813;" d="M429 493q0 59-42 101t-101 42-101-42-42-101 42-101 101-42 101 42 42 101z m142 0q0-61-18-100l-203-432q-9-18-27-29t-37-11-38 11-26 29l-204 432q-18 39-18 100 0 118 84 202t202 84 202-84 83-202z" horiz-adv-x="571.4" />

<glyph glyph-name="hash" unicode="&#xf029;" d="M2 207q4 25 25 42t46 16h149l36 170h-135q-28 0-46 21-17 22-12 51 5 25 26 42t46 16h149l31 150q6 26 26 42t46 17q30 0 47-21t11-51l-29-137h167l32 150q5 26 26 42t46 17q29 0 46-21 18-21 11-51l-29-137h136q28 0 46-21 17-22 11-51-5-25-25-42t-46-16h-149l-37-170h136q28 0 47-21 17-22 11-51-6-26-26-42t-46-17h-149l-32-150q-5-25-25-42t-46-16q-29 0-47 21-17 22-11 50l29 137h-167l-33-150q-5-25-25-42t-46-16q-28 0-46 21-17 22-12 50l30 137h-136q-29 0-46 22-18 21-11 51z m352 58h168l36 170h-168z" horiz-adv-x="912.1" />

<glyph glyph-name="login" unicode="&#xf02c;" d="M0 359q0 33 24 57t57 23h344l-111 111q-24 23-24 56t24 58q24 23 57 23t57-23l247-248q24-24 24-57t-24-57l-242-242q-24-24-57-24t-57 24-23 56 23 58l106 105h-344q-34 0-57 23t-24 57z m582-397q0 33 23 57t57 23h72q18 0 30 13t12 29v532q0 17-12 29t-30 13h-72q-33 0-57 23t-23 57 23 57 57 23h72q84 0 144-59t59-143v-532q0-84-60-144t-143-59h-72q-33 0-57 24t-23 57z" horiz-adv-x="937.5" />
</font>
</defs>
</svg>
